» » Benny Goodman - The Yale University Music Library - Benny Goodman - Volume 9
ulivingstonia
full-dateMP3 1963 mb. | FLAC 1366 mb. | WMA: 1508 mb.
Jazz

Benny Goodman - The Yale University Music Library - Benny Goodman - Volume 9 album flac

Benny Goodman - The Yale University Music Library - Benny Goodman - Volume 9 album flac

Performer: Benny Goodman
Title: The Yale University Music Library - Benny Goodman - Volume 9
Released: 1995
Style: Swing
Rating: 4.8
Votes: 572
Other formats: MIDI TTA WAV AIFF RA XM FLAC

CD No. 1 (Volume 9) Live At Basin Street, 1954. 1-1. After You've Gone. Track 2-1 published by Bourne C. Benny Davis C. ASCAP Track 2-2 published by Chappell & C. Inc & Steven Ballentine Pub. Co. In. ASCAP Track 2-3 published by Warner Bros. Music/ASCAP Track 2-4 published by Hampshire House Pub. Corp. amp; Chappell & C. Inc/ASCAP Track 2-5 published by Warner Bros. Music/ASCAP Track 2-6 published by Glenwood Music Corp. ASCAP Track 2-7 published by Warner Bros. Music/ASCAP Track 2-8 published by Criterion Music Corp. ASCAP Track 2-9 published by Anne Rachel Music/ASCAP Track 2-10 published by Ragbag Music Pub.

This album has an average beat per minute of 131 BPM (slowest/fastest tempos: 92/176 BPM). See its BPM profile at the bottom of the page. Recent albums by Benny Goodman. The Benny Goodman Collection. Portrait of Benny Goodman.

wav" WAVE TRACK 01 AUDIO TITLE "Let's Dance" PERFORMER "Benny Goodman" PREGAP 00:00:33 INDEX 01 00:00:00. TITLE "Gotta Be This Or That" PERFORMER "Benny Goodman" INDEX 01 00:00:00 FILE "08 Between The Devil And The Deep Blue Se. av" WAVE TRACK 08 AUDIO TITLE "Between The Devil And The Deep Blue Sea" PERFORMER "Benny Goodman" INDEX 01 00:00:00 FILE "09 Body And Soul. wav" WAVE TRACK 09 AUDIO TITLE "Body And Soul" PERFORMER "Benny Goodman".

Features Song Lyrics for Benny Goodman's The Yale University Music Library, Volume 5 album. Benny Goodman - The Yale University Music Library, Volume 5 Album. Artist: Benny Goodman. Send "Benny Goodman" Ringtones to your Cell. Album: The Yale University Music Library, Volume 5. 0. 1.

One of the most beloved jazz groups of all time was the original Benny Goodman Quartet, which featured Lionel Hampton, Teddy Wilson, and Gene Krupa. Despite its fame, the unit was only actually together for 16 months between 1936 and 1938 and, even with occasional reunions through the decades, the Quartet only recorded one studio record after its original breakup. Yale Recordings, Vol. 10 (MusicMasters) is comprised of unreleased material from the three sessions that resulted in the 1963 RCA album (which was reissued again later in 1996). There are second versions of "Who Cares" and.

Free download and listen The Yale University Music Library, Volumes 9 & 1. Tracks count: 21. Views: 16. Benny Goodman, Charlie Shavers, Mel Powell, Morey Feld, Steve Jordon, Israel Crosby Bass - On The Sunny Side of The Street 03:18.

Yale Archives Vols 9 & 10: Yale University Music Library (Double Disc). Yale University Music Library: Benny Goodman: Vol 1 & 2: Live at Basin Street.

2016-2019 © ulivingstonia.com
All rights reserved