» » The New Stan Getz Quartet Featuring Astrud Gilberto - Getz Au Go Go
ulivingstonia
full-dateMP3 1170 mb. | FLAC 1533 mb. | WMA: 1577 mb.
Jazz

The New Stan Getz Quartet Featuring Astrud Gilberto - Getz Au Go Go album flac

The New Stan Getz Quartet Featuring Astrud Gilberto - Getz Au Go Go album flac

Performer: The New Stan Getz Quartet
Title: Getz Au Go Go
Country: US
Released: 2000
Style: Latin Jazz
Rating: 4.6
Votes: 706
Other formats: ADX WMA AIFF MMF AIFF MIDI MP2

Getz Au Go Go is a live album by American saxophonist Stan Getz and his quartet, featuring bossa nova singer Astrud Gilberto. It was recorded during two concerts in 1964 and released on Verve the same year as V6-8600. Corcovado" (Antônio Carlos Jobim) – 2:51. It Might as Well Be Spring" (Richard Rodgers, Oscar Hammerstein II) – 4:27. Eu e Voce" (Carlos Lyra, Vinicius de Moraes) – 2:32. Summertime" (George Gershwin, Ira Gershwin) – 8:11. 6-Nix-Pix-Flix" (Gary Burton) – 1:05.

Recorded at Cafe Au Go Go, Greenwich Village, . 180 Gram audiophile vinyl Gatefold sleeve. Other Versions (5 of 68) View All. Cat.

Tenor Saxophone, Leader – Stan Getz. Vibraphone – Gary Burton. Vocals – Astrud Gilberto (tracks: A1 to A3, B1, B3, B4). Notes. Repress with newer label design and cat. Recorded at Cafe Au Go Go, Greenwich Village, . The images show the Release for France (Distribué par Polydor 2, rue Cavalotti, 75018 Paris).

''Getz Au Go Go'' is a live album by American saxophonist Stan Getz and his quartet, featuring bossa nova singer Astrud Gilberto. A point I haven't seen mention online is that this is a studio recording with overdubbed applause. Stan Getz appeareed with his new group at the Cafe Au Go Go in Greenwich Village during May 1964. The gig ran from May1-31, 1964. The recording was done on May 22, '64 ''not'' June '64 which has long been listed. On October 6, 1964 - and perhaps on other dates as well - Astrud Gildberto recorded with Stan Getz in the Studio, remaking the songs she had sung with Getz at the Au Go Go and would sing three days later with Getz at Carnegie Hall.

Album · 1964 · 10 Songs. Only Trust Your Heart (Live At Café Au Go-Go/1964). The New Stan Getz Quartet & Astrud Gilberto. 7. The Singing Song (Live At Café Au Go-Go/1964). 8. The Telephone Song (feat. 9. Samba de Uma Nota So (One Note Samba) .

Astrud Gilberto & Stan Getz Only Trust Your Heart ("New York 1964. Carnegie Hall, October 9. Greenwich Village, Cafe Au Go Go, August 19" - 1964). Astrud Gilberto, Chet Baker, Stan Getz Quartet Mamae Eu Quero,Chica Chica Boom Chic. The New Stan Getz Quartet feat Astrud Gilberto The Singing Song. The New Stan Getz Quartet Featuring Astrud Gilberto The Telephone Song. The New Stan Getz Quartet Featuring Astrud Gilberto One Note Samba. The New Stan Getz Quartet Featuring Astrud Gilberto It Might As Well Be Spring.

Getz Au Go Go is highly recommended for all dimensions of jazz enthusiasts. TITLE "The Singing Song" PERFORMER "Stan Getz-Astrud Gilberto" INDEX 01 00:00:00 FILE "08 - The Telephone Song. wav" WAVE TRACK 08 AUDIO TITLE "The Telephone Song" PERFORMER "Stan Getz-Astrud Gilberto" INDEX 01 00:00:00 FILE "09 - One Note Samba. wav" WAVE TRACK 09 AUDIO TITLE "One Note Samba" PERFORMER "Stan Getz-Astrud Gilberto" INDEX 01 00:00:00 FILE.

Tracklist

1 Corcovado (Quiet Nights Of Quiet Stars) 2:52
2 It Might As Well Be Spring 4:29
3 Eu E Voce 2:33
4 Summertime 8:12
5 6-Nix-Pix-Flix 1:06
6 Only Trust Your Heart 4:42
7 The Singing Song 3:47
8 The Telephone Song 1:58
9 One Note Samba 3:20
10 Here's That Rainy Day 6:16

Companies, etc.

  • Recorded At – Cafe Au Go Go
  • Phonographic Copyright (p) – The Verve Music Group
  • Copyright (c) – The Verve Music Group

Credits

  • Bass – Chuck Israels (tracks: 4, 9, 10), Gene Cherico
  • Drums – Hélcio Milito (tracks: 1 to 3, 8), Joe Hunt (tracks: 4, 5, 6, 7, 9, 10)
  • Engineer – Rudy Van Gelder
  • Guitar – Kenny Burrell (tracks: 1 to 3, 8)
  • Producer – Creed Taylor
  • Tenor Saxophone, Leader – Stan Getz
  • Vibraphone [Vibes] – Gary Burton
  • Vocals – Astrud Gilberto (tracks: 1 to 3, 6, 8, 9)

Notes

Remastered release of Verve Records Catalog # V6-8600.
Recorded at Cafe Au Go Go, Greenwich Village, N.Y.C., August 19, 1964.

Comes in gatefold mini LP replica with OBI & Japanese insert.

24 Bit Remaster

Barcode and Other Identifiers

  • Barcode: 4 988005 247568
  • Rights Society: JASRAC

Other versions

Category Artist Title (Format) Label Category Country Year
V-8600 The New Stan Getz Quartet Featuring Astrud Gilberto The New Stan Getz Quartet Featuring Astrud Gilberto - Getz Au Go Go ‎(LP, Album, Mono) Verve Records V-8600 US 1964
V6-8600 The New Stan Getz Quartet Featuring Astrud Gilberto The New Stan Getz Quartet Featuring Astrud Gilberto - Getz Au Go Go ‎(LP, Album) Verve Records V6-8600 US Unknown
V-8600(D) The New Stan Getz Quartet Featuring Astrud Gilberto The New Stan Getz Quartet Featuring Astrud Gilberto - Getz Au Go Go ‎(LP, Album) Verve Records V-8600(D) Canada 1964
VI 8600 The New Stan Getz Quartet Featuring Astrud Gilberto The New Stan Getz Quartet Featuring Astrud Gilberto - Getz Au Go Go ‎(LP, Album) Verve Records VI 8600 Italy 1965
MOVLP1318 The New Stan Getz Quartet Featuring Astrud Gilberto The New Stan Getz Quartet Featuring Astrud Gilberto - Getz Au Go Go ‎(LP, Album, RE, 180) Music On Vinyl MOVLP1318 Netherlands 2015

Tracklist

A1 Corcovado (Quiet Nights Of Quiet Stars) 2:40
A2 It Might As Well Be Spring 4:13
A3 Voce E Eu 2:50
A4 Summertime 8:00
A5 Six, Nix Quix-Flix 1:30
B1 Only Trust Your Heart 4:00
B2 The Singing Song 3:28
B3 The Telephone Song 1:55
B4 One Note Samba 3:15
B5 Here's That Rainy Day 6:00

Companies, etc.

  • Recorded At – Cafe Au Go Go
  • Record Company – MGM Records

Barcode and Other Identifiers

  • Matrix / Runout (Side A Etched): V-8600 64VG-176-RE-1
  • Matrix / Runout (Side B Etched): V-8600 64VG-177-1
  • Matrix / Runout (Side A Stamped): VAN GELDER
  • Matrix / Runout (Side B Stamped): VAN GELDER
  • Matrix / Runout (Side A Label): 64-VG-176
  • Matrix / Runout (Side B Label): 64-VG-177

Other versions

Category Artist Title (Format) Label Category Country Year
V-8600 The New Stan Getz Quartet Featuring Astrud Gilberto The New Stan Getz Quartet Featuring Astrud Gilberto - Getz Au Go Go ‎(LP, Album, Mono) Verve Records V-8600 US 1964
V6-8600 The New Stan Getz Quartet Featuring Astrud Gilberto The New Stan Getz Quartet Featuring Astrud Gilberto - Getz Au Go Go ‎(LP, Album) Verve Records V6-8600 US Unknown
V-8600(D) The New Stan Getz Quartet Featuring Astrud Gilberto The New Stan Getz Quartet Featuring Astrud Gilberto - Getz Au Go Go ‎(LP, Album) Verve Records V-8600(D) Canada 1964
VI 8600 The New Stan Getz Quartet Featuring Astrud Gilberto The New Stan Getz Quartet Featuring Astrud Gilberto - Getz Au Go Go ‎(LP, Album) Verve Records VI 8600 Italy 1965
MOVLP1318 The New Stan Getz Quartet Featuring Astrud Gilberto The New Stan Getz Quartet Featuring Astrud Gilberto - Getz Au Go Go ‎(LP, Album, RE, 180) Music On Vinyl MOVLP1318 Netherlands 2015


2016-2019 © ulivingstonia.com
All rights reserved